Ask a Question
GoPro Support Hub Ask a question. Share an answer. Find a solution. Stay stoked.
Announcements
Is your GoPro gear up to date? Check to see If it is on our Update page.
Subscribe to GoPro
Reply
Hiker
Posts: 10

Cineform avi file failed

[ New ]

It failed it says so in the GoPro Media Library under Upload Status.

Upload Status

Help

File Name
Date Uploaded
Source
Status
Action|
Delete All
Retry All
GP031880_Time_1715....avi
11:19 PM - Oct 7, 2021
Web
Failed
Retry
 
It completed uploading. It is probably not only the .avi extension but also other things perhaps like bitrate much to high
 
Here is the media info information for it
 
 

General
Complete name : G:\Download\GP031880 Time 1715till1723.avi
Format : AVI
Format/Info : Audio Video Interleave
Format profile : OpenDML
File size : 12.7 GiB
Duration : 5 min 43 s
Overall bit rate : 318 Mb/s

Video
ID : 0
Format : CineForm
Codec ID : CFHD
Codec ID/Info : CineForm 10-bit Visually Perfect HD (Wavelet)
Duration : 5 min 41 s
Bit rate : 318 Mb/s
Width : 2 704 pixels
Height : 1 520 pixels
Display aspect ratio : 16:9
Frame rate : 59.940 (60000/1001) FPS
Color space : YUV
Chroma subsampling : 4:2:2
Bit depth : 10 bits
Scan type : Progressive
Bits/(Pixel*Frame) : 1.291
Stream size : 12.6 GiB (100%)

Audio
ID : 1
Format : PCM
Format settings : Little / Signed
Codec ID : 1
Duration : 5 min 43 s
Bit rate mode : Constant
Bit rate : 1 536 kb/s
Channel(s) : 2 channels
Sampling rate : 48.0 kHz
Bit depth : 16 bits
Stream size : 62.8 MiB (0%)
Alignment : Aligned on interleaves
Interleave, duration : 249 ms (14.91 video frames)
Interleave, preload duration : 250 ms

 

GoPro
Posts: 423

Re: Cineform avi file failed

[ New ]

Hello @sunnyrange1284 AVI is not supported as an input container. Can you remux to mov or transcode to MP4 with Cineform and reupload ? I'll have the web uploader reject AVI files.


Thanks