Ask a Question
GoPro Support Hub Ask a question. Share an answer. Find a solution. Stay stoked.
Announcements
Is your GoPro gear up to date? Check to see If it is on our Update page.
GoPro Apps for Desktop
Reply
Tourist
Posts: 2

Quikでの時間表示

[ New ]

GoPro Hero 7 Black (v1.70)で撮影

Quik | デスクトップ 2.7.0.874 on macOS Mojave 10.14.3

 

カメラの設定時刻と生成されたファイル内のタイムスタンプは同一の13:23だが、

Quik上で表示される時刻は04:23AMとなっている。

これは、日本時間(JST) 13:23(UTC+09:00) を 04:23AM(UTC+00:00) のまま表示していことのが原因と考えられる。

 

Quikでの時刻の取り扱いを改善していただきたい。

(例:Quikの設定内にタイムゾーン設定を追加する、など)

 

===

$ ffprobe -hide_banner /Volumes/Multimedia/GoPro/2019-03-18/HERO7Black\ 1/GX010264.MP4 

[mov,mp4,m4a,3gp,3g2,mj2 @ 0x7fb2bd806200] Using non-standard frame rate 59/1

Input #0, mov,mp4,m4a,3gp,3g2,mj2, from '/Volumes/Multimedia/GoPro/2019-03-18/HERO7Black 1/GX010264.MP4':

  Metadata:

    major_brand     : mp41

    minor_version   : 538120216

    compatible_brands: mp41

    creation_time   : 2019-03-18T13:23:10.000000Z

    firmware        : HD7.01.01.70.00

  Duration: 00:01:53.51, start: 0.000000, bitrate: 24234 kb/s

    Stream #0:0(eng): Video: hevc (Main) (hvc1 / 0x31637668), yuvj420p(pc, bt709), 1920x1080 [SAR 1:1 DAR 16:9], 23975 kb/s, 59.94 fps, 59.94 tbr, 60k tbn, 59.94 tbc (default)

    Metadata:

      creation_time   : 2019-03-18T13:23:10.000000Z

      handler_name    : GoPro H.265

      encoder         : GoPro H.265 encoder

      timecode        : 13:35:58:34

    Stream #0:1(eng): Audio: aac (LC) (mp4a / 0x6134706D), 48000 Hz, stereo, fltp, 189 kb/s (default)

    Metadata:

      creation_time   : 2019-03-18T13:23:10.000000Z

      handler_name    : GoPro AAC  

      timecode        : 13:35:58:34

    Stream #0:2(eng): Data: none (tmcd / 0x64636D74) (default)

    Metadata:

      creation_time   : 2019-03-18T13:23:10.000000Z

      handler_name    : GoPro TCD  

      timecode        : 13:35:58:34

    Stream #0:3(eng): Data: bin_data (gpmd / 0x646D7067), 44 kb/s (default)

    Metadata:

      creation_time   : 2019-03-18T13:23:10.000000Z

      handler_name    : GoPro MET  

    Stream #0:4(eng): Data: none (fdsc / 0x63736466), 13 kb/s (default)

    Metadata:

      creation_time   : 2019-03-18T13:23:10.000000Z

      handler_name    : GoPro SOS  

Unsupported codec with id 0 for input stream 2

Unsupported codec with id 100359 for input stream 3

Unsupported codec with id 0 for input stream 4

=====

スクリーンショット 2019-03-20 18.02.46.png
Explorer
Posts: 13,027

Re: Quikでの時間表示

[ New ]
This is a member to member chat. You should leave your feedback for GoPro here https://gopro.com/feedback
Tourist
Posts: 2

Re: Quikでの時間表示

[ New ]
I’m sorry. Thank you for your advice.